смотреть трейлер Мир Юрского периода 2 m t d

Home Forums SEO Forum смотреть трейлер Мир Юрского периода 2 m t d

This topic contains 0 replies, has 1 voice, and was last updated by  LindaMag 1 week, 4 days ago.

Viewing 1 post (of 1 total)
  • Author
    Posts
  • #39009

    LindaMag
    Participant

    <b>смотреть трейлер Мир Юрского периода 2 m t d</b>

    <b>Смотреть фильм Мир Юрского периода 2</b>
    <b><font color=red>Смотреть фильм Мир Юрского периода 2</font></b>
    <b><font color=green>Смотреть фильм Мир Юрского периода 2</font></b>

    12 Apr 2018 – 91 min Смотреть Беги онлайн фильм в хорошем качестве. Беги смотреть онлайнСмотреть онлайн Беги (1991) в хорошем качестве hd 720
    18 Apr 2018 – 3 min Мир Юрского периода 2216 416, комментариев к роликуСам концептидеи ЮП в том, что динозавры — хищники, а люди
    6 May 2018 – 9 min – Uploaded by HD Трейлеры Все русские трейлеры фильма Мир Юрского периода 2 2018 годаДатавыхода в РФ – 7 Июня 2018Published on May 6, 2018.
    Армагеддон — Официальный, Русский онлайн трейлер фильма.Трейлеры к фильму Армагеддон смотреть онлайн Мир Юрского периода 2.
    Дети 90-х Все помнят лихие 90-е. А кто не помнит, вкратцерэкет, бритоголовые,Смотреть онлайн Дети 90-х (2015) в хорошем качестве hd 720.
    Смотреть онлайн фильм Первому игроку приготовиться (2018) в хорошем качестве hd Международный трейлер с японскими субтитрами Мир Юрского периода 2.Тихое место смотретьТихое место фильм 2018 смотреть 71
    Скачать фильмы HD через торрент Зарубежное кино 1991-2000; 0Скачать Парк Юрского периода 2: Затерянный мир (HDRip) 1997 через
    5 мин. назадлига чемпионов финал 2018 трансляция смотреть онлайн, реалмир юрского периода 2 фильм 2018 трейлер, парк юрского периода 4, юрскийчерновик смотреть бесплатно в хорошем качестве hd 720,рынке краткосрочной аренды в 11 городах-участниках футбольного турнира.
    Фильмы по годам Мир Юрского периода 2 (2018)Смотреть онлайн Лапочка 4 (2018) в хорошем качестве hd0:001:38:39. Live
    Мир Юрского периода 2 фильм 2018 смотреть онлайн бесплатно Смотреть фильм Мир Юрского периода (2015) бесплатно онлайн в хорошем
    Мир Юрского периода 2 , купить недорого билеты в кинотеатре Кинотеатр Спектр 3D г.Можайск ,143200, Московская область, Можайский район,
    Смотреть онлайн Джуманджи: Зов джунглей (2017) бесплатно в хорошем качестве на HD. Быстро и качественно, приятного просмотра!Мир Юрского периода 2 (2018)Мир Юрского периода 2 (2018)
    На мировые экраны повторно выходит Парк Юрского периода – один из самых Парк Юрского периода 2: Затерянный мир. Ролик о
    Нас ждёт новый фильм, Мир Юрского Периода 2: Fallenв июне 2018), игрушки линии Mattel 2018 Jurassic World — это самый большой Для возраста 5 лет и старше, набор дебютирует осенью 2018 за 49,99.
    https:afisha.yandex.ruyaroslavltheatrevinni-pukh-i-novyi-god Мир Юрского периода 2 (2018).яндекс Звёздные войны: Последние джедаи b l yмумия 2017 смотреть фильм онлайн г,,,ъ торрентом ком е.,.умумия

    За что благодарите (уточнять не обязательно)? Второй трейлер фильма Мир Юрского периода. В парке как всегда весело: 64. 18715. 84% Ммм, я бы не пошел в парк аттракционов смотреть на то, как динозавры поедают коз и касаток (или дельфинов?) Только людей, только хардкор? Авторизируйтесь, чтобы оставлять комментарии: Похожие материалы. Рецензии на фильм Мир Юрского периода.
    Русские трейлеры Мир Юрского периода 2 – Трейлер 3 (дублированный) смотреть онлайн 0:02:28. Тизер 3 (дублированный).
    При просмотре фильма Парк Юрского периода 2: Затерянный мир (1997), не забудьте выбрать в плеере наилучшее качество HD 1080 или HD 720. Оригинальный дизайн сайта позволит наслаждаться просмотром на телефонах и планшетах с андроид и айпад системой. Рекомендуем к просмотру. Парк Юрского периода (1993). HDRip. КПИлья Приймаков 5. 17 мая 2018 23:38. Продолжение на такой же высоте. Помню как смотрел в детстве.
    Трейлер к фильму ” Мир Юрского периода “. Входит в топ 100 фильмов! В подборке: Динозавры,Выживание Группа: Посетители. Регистрация: 19 Комментариев: 183. +10 Понравиться тем, кто никогда не смотрел Парк юрского периода. Часть сцен просто напрямую из первой части. Все угадывается, можно только начиная смотреть, кого точно съедят, а кого нет.
    + Мир Юрского периода 2 (2018). США, Испания2018 год.0 оценок Kinox. – – оценок IMDb Название фильма: Фильм не работает : Главная БоевикиМир Юрского периода 2 (2018). О фильме: Год производства: 2018 Премьера. 7 июня 2018. Возраст После трагических событий в развлекательном Мир Юрского периода 2 парк аттракционов закрыли. Но через несколько лет бизнесмены вновь решили эксплуатировать эту золотую жилу для привлечения туристов. Те давние воспоминания улеглись.
    HD DVDBDHDTV Rip Скачать торрент Мир Юрского периодаJurassic World (Колин Треворроу) 2015, фантастика, приключения, боевик, BDRip 720p DUB Бесплатные торренты всегда на нашем сайте и в хорошем качестве! Фильм доступен на нашем торрент-трекере бесплатно, без регистрации и смс. Статистика раздачи Размер потока : 1,31 Гбайт (12%) Заголовок : Оригинал Язык : English Default : Нет Forced : Нет. Текст 1 Идентификатор : 4 Формат : UTF-8 Идентификатор кодека : STEXTUTF8 Идентификатор кодекаИнформация : UTF-8 Plain Text Язык : Russian Default : Нет Forced : Нет.
    Мир Юрского периода 2 Обзор Русский трейлер Добавил GREY FOX. 27 просмотры. 09:25. “Мир Юрского периода” – обзор фильма Добавил Rodion. 19 просмотры. 14:42. Все грехи фильма “Мир Юрского периода” Добавил Rodion 05:44. Киев День5 идем в Аквапарк Юрского Периода в Дрим Таун Go to the water park in the Dream Town Добавил drzoidberg. 11 просмотры. 03:57. Вечерний Ургант. Баскетбол юрского периода – Тимофей Мозгов. () Добавил Rodion. 11 просмотры.
    Опубликован первый трейлер “Мира Юрского периода 2”. 8 декабря, 2017, 14:30 Распечатать. Поделитесь с друзьями16:13 Автор: Сергей Следзь Статья. Французский май События 1968 г. французы вспоминают протестами и забастовками.14:55 Автор: Надежда Коваль Статья.
    22 Просмотры. Описание. Первый русский трейлер фильма Мир Юрского периода 2: Падшее царство 2018 года. Русские трейлеры к фильмам, сериалам и играм! Интересные ролики о фильмах и их съёмках! Подпишись на канал Новости,промо,трейлеры,даты выходов фильмов и сериалов только у нас:. . Дата выхода в РФ – 7 июня 2018.
    Мир Юрского периода 2 (2018). Расписание сеансов в кинотеатрах (Серов). Афиша на Кинопоиске: все кинотеатры, фильмы, сеансы, города. Бронирование билетов 13. Аватар 2Avatar 2 89.55%. 14. Хищник The Predator . 15. Как приручить дракона 3How to Train Your Dragon: The Hidden World .
    Игры, фильмы, сериалы скачать торрент ПриключенияМир Юрского периода 2 (2018) HD фильм. Мир Юрского периода 2 (2018) HD фильм Скачать торрент. 13-02-2018, 23:32. Категория: Приключения. Просмотров: 2 710. +127. Жанр: Приключения Мир Юрского периодаJurassic World (2015) BDRip-AVC от . HD-Films60 fps. . 117.
    Продолжительность: 1 час 56 минут. Сюжетная линия: Генная инженерия развивается с огромной скоростью. Ученые умудрились вновь вернуть к жизни доисторического динозавра, который давным-давно исчез с поверхности земли. Этим научным достижением сразу решили воспользоваться бизнесмены для извлечения огромных прибылей. Они открыли парк аттракционов и дали ему название Мир Юрского периода. Аттракцион был потрясающий, десятки тысяч людей наблюдали за дрессированными динозаврами, их спокойствие и безопасность были гарантированы смотреть фильм мир юрского периода 2 2018 онлайн в HD качестве бесплатно. или трейлер. или тут.
    Трейлер фильма Мир Юрского периода 2. Франшиза о парке развлечений с динозаврами впервые увидела свет в 1993 году, когда на экраны вышел фильм Парк Юрского периода, снятый Стивеном Спилбергом по одноимённому роману американского писателя-фантаста Майкла Крайтона. Фильм был удостоен Оскаров в номинациях Лучшие визуальные эффекты, Лучший звук и Лучший звуковой монтаж Мир Юрского периода 2. Смотреть видео. 23 просмотра. . Маугли.
    Трейлер фильма Мир Юрского периода 2. Вконтакте. Facebook Мэри и ведьмин цветок: смотрите русский трейлер главного аниме года. Новый злодей Веном: смотрите первый трейлер кинокомикса для взрослых. Хан Соло: Звёздные войны 1 690 571. Тренер. 52 942 561. 840 270. Смешарики.

    Кеи:
    Мир Юрского периода 2 2018 торрент
    Мир Юрского периода 2 2018 онлайн
    Мир Юрского периода 2 художественный фильм
    смотреть Мир Юрского периода 2
    Мир Юрского периода 2 фильм 2018 премьера
    смотреть фильм Мир Юрского периода 2 в hd качестве
    Мир Юрского периода 2 яндекс
    смотреть фильм Мир Юрского периода 2
    фильм Мир Юрского периода 2 смотреть онлайн в хорошем качестве
    Мир Юрского периода 2 смотреть фильм онлайн
    кино Мир Юрского периода 2
    яндекс Мир Юрского периода 2

    Хиты:
    кино Дэдпул 2 c b y
    Мир Юрского периода 2 смотреть онлайн 2018 в хорошем качестве r x w
    Секса не будет!!! онлайн hd c y q
    Секса не будет!!! смотреть онлайн 2018 в хорошем качестве w a t
    Тренер онлайн hd o w b
    Дэдпул 2 трейлер v r p

    .

  • Author
    Posts
  • #39009

    LindaMag
    Participant
    • Offline

    <b>смотреть трейлер Мир Юрского периода 2 m t d</b>

    <b>Смотреть фильм Мир Юрского периода 2</b>
    <b><font color=red>Смотреть фильм Мир Юрского периода 2</font></b>
    <b><font color=green>Смотреть фильм Мир Юрского периода 2</font></b>

    12 Apr 2018 – 91 min Смотреть Беги онлайн фильм в хорошем качестве. Беги смотреть онлайнСмотреть онлайн Беги (1991) в хорошем качестве hd 720
    18 Apr 2018 – 3 min Мир Юрского периода 2216 416, комментариев к роликуСам концептидеи ЮП в том, что динозавры — хищники, а люди
    6 May 2018 – 9 min – Uploaded by HD Трейлеры Все русские трейлеры фильма Мир Юрского периода 2 2018 годаДатавыхода в РФ – 7 Июня 2018Published on May 6, 2018.
    Армагеддон — Официальный, Русский онлайн трейлер фильма.Трейлеры к фильму Армагеддон смотреть онлайн Мир Юрского периода 2.
    Дети 90-х Все помнят лихие 90-е. А кто не помнит, вкратцерэкет, бритоголовые,Смотреть онлайн Дети 90-х (2015) в хорошем качестве hd 720.
    Смотреть онлайн фильм Первому игроку приготовиться (2018) в хорошем качестве hd Международный трейлер с японскими субтитрами Мир Юрского периода 2.Тихое место смотретьТихое место фильм 2018 смотреть 71
    Скачать фильмы HD через торрент Зарубежное кино 1991-2000; 0Скачать Парк Юрского периода 2: Затерянный мир (HDRip) 1997 через
    5 мин. назадлига чемпионов финал 2018 трансляция смотреть онлайн, реалмир юрского периода 2 фильм 2018 трейлер, парк юрского периода 4, юрскийчерновик смотреть бесплатно в хорошем качестве hd 720,рынке краткосрочной аренды в 11 городах-участниках футбольного турнира.
    Фильмы по годам Мир Юрского периода 2 (2018)Смотреть онлайн Лапочка 4 (2018) в хорошем качестве hd0:001:38:39. Live
    Мир Юрского периода 2 фильм 2018 смотреть онлайн бесплатно Смотреть фильм Мир Юрского периода (2015) бесплатно онлайн в хорошем
    Мир Юрского периода 2 , купить недорого билеты в кинотеатре Кинотеатр Спектр 3D г.Можайск ,143200, Московская область, Можайский район,
    Смотреть онлайн Джуманджи: Зов джунглей (2017) бесплатно в хорошем качестве на HD. Быстро и качественно, приятного просмотра!Мир Юрского периода 2 (2018)Мир Юрского периода 2 (2018)
    На мировые экраны повторно выходит Парк Юрского периода – один из самых Парк Юрского периода 2: Затерянный мир. Ролик о
    Нас ждёт новый фильм, Мир Юрского Периода 2: Fallenв июне 2018), игрушки линии Mattel 2018 Jurassic World — это самый большой Для возраста 5 лет и старше, набор дебютирует осенью 2018 за 49,99.
    https:afisha.yandex.ruyaroslavltheatrevinni-pukh-i-novyi-god Мир Юрского периода 2 (2018).яндекс Звёздные войны: Последние джедаи b l yмумия 2017 смотреть фильм онлайн г,,,ъ торрентом ком е.,.умумия

    За что благодарите (уточнять не обязательно)? Второй трейлер фильма Мир Юрского периода. В парке как всегда весело: 64. 18715. 84% Ммм, я бы не пошел в парк аттракционов смотреть на то, как динозавры поедают коз и касаток (или дельфинов?) Только людей, только хардкор? Авторизируйтесь, чтобы оставлять комментарии: Похожие материалы. Рецензии на фильм Мир Юрского периода.
    Русские трейлеры Мир Юрского периода 2 – Трейлер 3 (дублированный) смотреть онлайн 0:02:28. Тизер 3 (дублированный).
    При просмотре фильма Парк Юрского периода 2: Затерянный мир (1997), не забудьте выбрать в плеере наилучшее качество HD 1080 или HD 720. Оригинальный дизайн сайта позволит наслаждаться просмотром на телефонах и планшетах с андроид и айпад системой. Рекомендуем к просмотру. Парк Юрского периода (1993). HDRip. КПИлья Приймаков 5. 17 мая 2018 23:38. Продолжение на такой же высоте. Помню как смотрел в детстве.
    Трейлер к фильму ” Мир Юрского периода “. Входит в топ 100 фильмов! В подборке: Динозавры,Выживание Группа: Посетители. Регистрация: 19 Комментариев: 183. +10 Понравиться тем, кто никогда не смотрел Парк юрского периода. Часть сцен просто напрямую из первой части. Все угадывается, можно только начиная смотреть, кого точно съедят, а кого нет.
    + Мир Юрского периода 2 (2018). США, Испания2018 год.0 оценок Kinox. – – оценок IMDb Название фильма: Фильм не работает : Главная БоевикиМир Юрского периода 2 (2018). О фильме: Год производства: 2018 Премьера. 7 июня 2018. Возраст После трагических событий в развлекательном Мир Юрского периода 2 парк аттракционов закрыли. Но через несколько лет бизнесмены вновь решили эксплуатировать эту золотую жилу для привлечения туристов. Те давние воспоминания улеглись.
    HD DVDBDHDTV Rip Скачать торрент Мир Юрского периодаJurassic World (Колин Треворроу) 2015, фантастика, приключения, боевик, BDRip 720p DUB Бесплатные торренты всегда на нашем сайте и в хорошем качестве! Фильм доступен на нашем торрент-трекере бесплатно, без регистрации и смс. Статистика раздачи Размер потока : 1,31 Гбайт (12%) Заголовок : Оригинал Язык : English Default : Нет Forced : Нет. Текст 1 Идентификатор : 4 Формат : UTF-8 Идентификатор кодека : STEXTUTF8 Идентификатор кодекаИнформация : UTF-8 Plain Text Язык : Russian Default : Нет Forced : Нет.
    Мир Юрского периода 2 Обзор Русский трейлер Добавил GREY FOX. 27 просмотры. 09:25. “Мир Юрского периода” – обзор фильма Добавил Rodion. 19 просмотры. 14:42. Все грехи фильма “Мир Юрского периода” Добавил Rodion 05:44. Киев День5 идем в Аквапарк Юрского Периода в Дрим Таун Go to the water park in the Dream Town Добавил drzoidberg. 11 просмотры. 03:57. Вечерний Ургант. Баскетбол юрского периода – Тимофей Мозгов. () Добавил Rodion. 11 просмотры.
    Опубликован первый трейлер “Мира Юрского периода 2”. 8 декабря, 2017, 14:30 Распечатать. Поделитесь с друзьями16:13 Автор: Сергей Следзь Статья. Французский май События 1968 г. французы вспоминают протестами и забастовками.14:55 Автор: Надежда Коваль Статья.
    22 Просмотры. Описание. Первый русский трейлер фильма Мир Юрского периода 2: Падшее царство 2018 года. Русские трейлеры к фильмам, сериалам и играм! Интересные ролики о фильмах и их съёмках! Подпишись на канал Новости,промо,трейлеры,даты выходов фильмов и сериалов только у нас:. . Дата выхода в РФ – 7 июня 2018.
    Мир Юрского периода 2 (2018). Расписание сеансов в кинотеатрах (Серов). Афиша на Кинопоиске: все кинотеатры, фильмы, сеансы, города. Бронирование билетов 13. Аватар 2Avatar 2 89.55%. 14. Хищник The Predator . 15. Как приручить дракона 3How to Train Your Dragon: The Hidden World .
    Игры, фильмы, сериалы скачать торрент ПриключенияМир Юрского периода 2 (2018) HD фильм. Мир Юрского периода 2 (2018) HD фильм Скачать торрент. 13-02-2018, 23:32. Категория: Приключения. Просмотров: 2 710. +127. Жанр: Приключения Мир Юрского периодаJurassic World (2015) BDRip-AVC от . HD-Films60 fps. . 117.
    Продолжительность: 1 час 56 минут. Сюжетная линия: Генная инженерия развивается с огромной скоростью. Ученые умудрились вновь вернуть к жизни доисторического динозавра, который давным-давно исчез с поверхности земли. Этим научным достижением сразу решили воспользоваться бизнесмены для извлечения огромных прибылей. Они открыли парк аттракционов и дали ему название Мир Юрского периода. Аттракцион был потрясающий, десятки тысяч людей наблюдали за дрессированными динозаврами, их спокойствие и безопасность были гарантированы смотреть фильм мир юрского периода 2 2018 онлайн в HD качестве бесплатно. или трейлер. или тут.
    Трейлер фильма Мир Юрского периода 2. Франшиза о парке развлечений с динозаврами впервые увидела свет в 1993 году, когда на экраны вышел фильм Парк Юрского периода, снятый Стивеном Спилбергом по одноимённому роману американского писателя-фантаста Майкла Крайтона. Фильм был удостоен Оскаров в номинациях Лучшие визуальные эффекты, Лучший звук и Лучший звуковой монтаж Мир Юрского периода 2. Смотреть видео. 23 просмотра. . Маугли.
    Трейлер фильма Мир Юрского периода 2. Вконтакте. Facebook Мэри и ведьмин цветок: смотрите русский трейлер главного аниме года. Новый злодей Веном: смотрите первый трейлер кинокомикса для взрослых. Хан Соло: Звёздные войны 1 690 571. Тренер. 52 942 561. 840 270. Смешарики.

    Кеи:
    Мир Юрского периода 2 2018 торрент
    Мир Юрского периода 2 2018 онлайн
    Мир Юрского периода 2 художественный фильм
    смотреть Мир Юрского периода 2
    Мир Юрского периода 2 фильм 2018 премьера
    смотреть фильм Мир Юрского периода 2 в hd качестве
    Мир Юрского периода 2 яндекс
    смотреть фильм Мир Юрского периода 2
    фильм Мир Юрского периода 2 смотреть онлайн в хорошем качестве
    Мир Юрского периода 2 смотреть фильм онлайн
    кино Мир Юрского периода 2
    яндекс Мир Юрского периода 2

    Хиты:
    кино Дэдпул 2 c b y
    Мир Юрского периода 2 смотреть онлайн 2018 в хорошем качестве r x w
    Секса не будет!!! онлайн hd c y q
    Секса не будет!!! смотреть онлайн 2018 в хорошем качестве w a t
    Тренер онлайн hd o w b
    Дэдпул 2 трейлер v r p

    .

Viewing 1 post (of 1 total)

You must be logged in to reply to this topic.